<?xml version="1.0" standalone="no"?>
<!DOCTYPE svg PUBLIC "-//W3C//DTD SVG 1.1//EN" "http://www.w3.org/Graphics/SVG/1.1/DTD/svg11.dtd" >
<svg xmlns="http://www.w3.org/2000/svg">
<metadata>Generated by IcoMoon</metadata>
<defs>
<font id="icomoon" horiz-adv-x="1024">
<font-face units-per-em="1024" ascent="960" descent="-64" />
<missing-glyph horiz-adv-x="1024" />
<glyph unicode="&#x20;" d="" horiz-adv-x="512" />
<glyph unicode="&#x21;" d="M0 960v-1024h1024v1024h-1024zM631.008 800c16.064 0 29.28-5.296 40-16l34-34c10.704-10.704 15.984-23.92 16-40-0.016-16.080-5.296-29.296-16-40l-218-218 218-216c10.704-11.92 15.984-25.536 16-41.008-0.016-15.456-5.296-28.272-16-38.992l-34-34c-10.72-10.72-23.936-16-40-16-16.080 0-29.296 5.28-40 16l-293.008 290.992c-10.704 10.72-16 23.936-16 40 0 16.080 5.296 29.296 16 40l293.008 291.008c10.704 10.704 23.92 16 40 16z" />
<glyph unicode="&#x23;" d="M0 960v-1024h1024v1024h-1024zM405.008 802c16.656 0 29.456-6.096 38.992-18l293.008-291.008c10.704-10.704 15.984-23.52 16-38.992-0.016-15.472-5.296-29.104-16-41.008l-293.008-290.992c-10.72-10.72-23.536-16-38.992-16-15.472 0-29.28 5.28-40 16l-35.008 34c-10.704 11.92-16 25.52-16 40.992s5.296 28.288 16 39.008l218 218-218 216c-10.704 11.92-16 25.52-16 40.992 0 15.488 5.296 28.304 16 39.008l35.008 34c9.52 11.904 23.328 18 40 18z" />
<glyph unicode="&#x30;" d="M0 960v-1024h1024v1024h-1024zM453.008 760l300-300-300-300-120 120 180 180-180 180 120 120z" />
<glyph unicode="&#x33;" d="M512 960c-282.768 0-512-229.232-512-512s229.232-512 512-512c282.768 0 512 229.232 512 512s-229.232 512-512 512zM572 744l120-120-180-180 180-180-120-120-300 300 300 300z" />
<glyph unicode="&#x34;" d="M512 960c-282.768 0-512-229.232-512-512s229.232-512 512-512c282.768 0 512 229.232 512 512s-229.232 512-512 512zM456 744l300-300-300-300-120 120 180 180-180 180 120 120z" />
<glyph unicode="&#x37;" d="M512 960c-282.768 0-512-229.232-512-512s229.232-512 512-512c282.768 0 512 229.232 512 512s-229.232 512-512 512zM583.008 732c12.848 0 23.424-4.432 32-13.008l28-26.992c8.56-8.576 11.984-19.136 12-32-0.016-12.864-3.44-24.432-12-33.008l-175.008-174 175.008-172.992c8.56-9.536 11.984-20.624 12-33.008-0.016-12.368-3.44-22.416-12-30.992l-28-27.008c-8.576-8.576-19.152-12.992-32-12.992-12.864 0-23.44 4.416-32 12.992l-234 233.008c-8.576 8.56-13.008 19.136-13.008 32s4.432 23.44 13.008 32l234 232.992c8.56 8.576 19.136 13.008 32 13.008z" />
<glyph unicode="&#x38;" d="M512 960c-282.768 0-512-229.232-512-512s229.232-512 512-512c282.768 0 512 229.232 512 512s-229.232 512-512 512zM441.008 732.992c13.328 0 23.36-4.48 30.992-14l235.008-232.992c8.56-8.56 11.984-18.624 12-31.008-0.016-12.368-3.44-23.472-12-32.992l-235.008-233.008c-8.576-8.576-18.624-12.992-30.992-12.992-12.384 0-23.424 4.416-32 12.992l-28 27.008c-8.576 9.536-13.008 20.624-13.008 32.992 0 12.384 4.432 22.432 13.008 31.008l174 174.992-174 172c-8.576 9.536-13.008 20.624-13.008 33.008s4.432 23.424 13.008 32l28 26.992c7.616 9.52 18.656 14 32 14z" />
<glyph unicode="&#x39;" d="M0 960v-1024h1024v1024h-1024zM588 760l120-120-180-180 180-180-120-120-300 300 300 300z" />
<glyph unicode="&#x65;" d="M597.333 789.333l128-128-192-192 192-192-128-128-320 320z" />
<glyph unicode="&#x66;" d="M384 789.333l-128-128 192-192-192-192 128-128 320 320z" />
<glyph unicode="&#x69;" d="M737.23 68.199c13.721-13.874 13.721-36.249 0-50.126s-35.89-13.874-49.614 0l-400.896 404.839c-13.721 13.874-13.721 36.302 0 50.126l400.896 404.889c13.721 13.874 35.89 13.874 49.614 0s13.721-36.249 0-50.126l-365.568-379.801 365.568-379.801z" />
<glyph unicode="&#x6a;" d="M286.704 68.199c-13.721-13.874-13.721-36.249 0-50.126s35.89-13.874 49.614 0l400.896 404.839c13.721 13.874 13.721 36.302 0 50.126l-400.896 404.889c-13.721 13.874-35.89 13.874-49.614 0s-13.721-36.249 0-50.126l365.568-379.801-365.568-379.801z" />
<glyph unicode="&#x6b;" d="M877.714 448v-73.143q0-30.286-18.571-51.714t-48.286-21.429h-402.286l167.429-168q21.714-20.571 21.714-51.429t-21.714-51.429l-42.857-43.429q-21.143-21.143-51.429-21.143-29.714 0-52 21.143l-372 372.571q-21.143 21.143-21.143 51.429 0 29.714 21.143 52l372 371.429q21.714 21.714 52 21.714 29.714 0 51.429-21.714l42.857-42.286q21.714-21.714 21.714-52t-21.714-52l-167.429-167.429h402.286q29.714 0 48.286-21.429t18.571-51.714z" horiz-adv-x="878" />
<glyph unicode="&#x6c;" d="M841.143 411.429q0-30.857-21.143-52l-372-372q-22.286-21.143-52-21.143-29.143 0-51.429 21.143l-42.857 42.857q-21.714 21.714-21.714 52t21.714 52l167.429 167.429h-402.286q-29.714 0-48.286 21.429t-18.571 51.714v73.143q0 30.286 18.571 51.714t48.286 21.429h402.286l-167.429 168q-21.714 20.571-21.714 51.429t21.714 51.429l42.857 42.857q21.714 21.714 51.429 21.714 30.286 0 52-21.714l372-372q21.143-20 21.143-51.429z" horiz-adv-x="878" />
<glyph unicode="&#x6d;" d="M358.286 649.143q0-7.429-5.714-13.143l-224.571-224.571 224.571-224.571q5.714-5.714 5.714-13.143t-5.714-13.143l-28.571-28.571q-5.714-5.714-13.143-5.714t-13.143 5.714l-266.286 266.286q-5.714 5.714-5.714 13.143t5.714 13.143l266.286 266.286q5.714 5.714 13.143 5.714t13.143-5.714l28.571-28.571q5.714-5.714 5.714-13.143z" horiz-adv-x="366" />
<glyph unicode="&#x6e;" d="M340 411.429q0-7.429-5.714-13.143l-266.286-266.286q-5.714-5.714-13.143-5.714t-13.143 5.714l-28.571 28.571q-5.714 5.714-5.714 13.143t5.714 13.143l224.571 224.571-224.571 224.571q-5.714 5.714-5.714 13.143t5.714 13.143l28.571 28.571q5.714 5.714 13.143 5.714t13.143-5.714l266.286-266.286q5.714-5.714 5.714-13.143z" horiz-adv-x="366" />
<glyph unicode="&#x6f;" d="M731.429 411.429v73.143q0 14.857-10.857 25.714t-25.714 10.857h-286.857l108 108q10.857 10.857 10.857 25.714t-10.857 25.714l-52 52q-10.286 10.286-25.714 10.286t-25.714-10.286l-258.857-258.857q-10.286-10.286-10.286-25.714t10.286-25.714l258.857-258.857q10.286-10.286 25.714-10.286t25.714 10.286l52 52q10.286 10.286 10.286 25.714t-10.286 25.714l-108 108h286.857q14.857 0 25.714 10.857t10.857 25.714zM877.714 448q0-119.429-58.857-220.286t-159.714-159.714-220.286-58.857-220.286 58.857-159.714 159.714-58.857 220.286 58.857 220.286 159.714 159.714 220.286 58.857 220.286-58.857 159.714-159.714 58.857-220.286z" horiz-adv-x="878" />
<glyph unicode="&#x70;" d="M734.286 448q0 15.429-10.286 25.714l-258.857 258.857q-10.286 10.286-25.714 10.286t-25.714-10.286l-52-52q-10.286-10.286-10.286-25.714t10.286-25.714l108-108h-286.857q-14.857 0-25.714-10.857t-10.857-25.714v-73.143q0-14.857 10.857-25.714t25.714-10.857h286.857l-108-108q-10.857-10.857-10.857-25.714t10.857-25.714l52-52q10.286-10.286 25.714-10.286t25.714 10.286l258.857 258.857q10.286 10.286 10.286 25.714zM877.714 448q0-119.429-58.857-220.286t-159.714-159.714-220.286-58.857-220.286 58.857-159.714 159.714-58.857 220.286 58.857 220.286 159.714 159.714 220.286 58.857 220.286-58.857 159.714-159.714 58.857-220.286z" horiz-adv-x="878" />
<glyph unicode="&#x71;" d="M424 61.143l-372.571 372q-21.143 21.143-21.143 51.714t21.143 51.714l372.571 372q21.143 21.143 51.714 21.143t51.714-21.143l42.857-42.857q21.143-21.143 21.143-51.714t-21.143-51.714l-277.714-277.714 277.714-277.143q21.143-21.714 21.143-52t-21.143-51.429l-42.857-42.857q-21.143-21.143-51.714-21.143t-51.714 21.143z" horiz-adv-x="658" />
<glyph unicode="&#x72;" d="M628 484.571q0-29.714-21.143-52l-372.571-372q-21.143-21.143-51.429-21.143t-51.429 21.143l-43.429 42.857q-21.143 22.286-21.143 52 0 30.286 21.143 51.429l277.714 277.714-277.714 277.143q-21.143 22.286-21.143 52 0 30.286 21.143 51.429l43.429 42.857q20.571 21.714 51.429 21.714t51.429-21.714l372.571-372q21.143-21.143 21.143-51.429z" horiz-adv-x="658" />
<glyph unicode="&#x77;" d="M832 128l-192-192-512 512 512 512 192-192-320-320 320-320z" />
<glyph unicode="&#x78;" d="M128 128l192-192 512 512-512 512-192-192 320-320-320-320z" />
</font>
</defs>
</svg>
